Minisséries nacionais em "raio azul".

Discussão sobre edições lançadas no Brasil
Luís Fernando
Cabuloso
Cabuloso
Mensagens: 981
Registrado em: Seg 04 Out 2010 14:32

Minisséries nacionais em "raio azul".

Mensagem por Luís Fernando » Seg 15 Nov 2010 20:41

A Rede Globo não tem uma programação das mais louváveis, mas é fato que algumas minisséries que eles estão fazendo ultimamente são verdadeiras obras-primas da teledramaturgia! E até agora algumas já foram lançadas em HD Blu-ray; elas são:

Capitu (Uma das melhores produções televisivas que eu já vi, tão boa quanto o livro original!)

Imagem

Maysa - Quando Fala o Coração (Ótima série! Nunca havia ouvido Maysa e gostei muito do que vi e ouvi!)

Imagem

Som e Fúria (Essa eu não vi tanto mas parece ser interessante...)

Imagem

Dalva & Herivelto (Muito boa! Também não conhecia esses cantores e fiquei encantado com ela!)

Imagem

E aí eu pergunto: alguns de vocês já adquiriram ou já se interessaram por essas edições?
Por mim compraria todas!!!

Avatar do usuário
viniciusjf
São Criterion
São Criterion
Mensagens: 3788
Registrado em: Ter 20 Jul 2010 16:32

Re: Minisséries nacionais em "raio azul".

Mensagem por viniciusjf » Ter 16 Nov 2010 02:31

A Globo tem que lançar logo as fodas: A Muralha, Chiquinha Gonzaga, Os Maias e Memorial de Maria Moura.

Fernanddo
Comumzão
Comumzão
Mensagens: 80
Registrado em: Sex 12 Nov 2010 21:30

Re: Minisséries nacionais em "raio azul".

Mensagem por Fernanddo » Ter 16 Nov 2010 02:35

Me interesso pela Maysa e pela Dalva & Erivelto, mas as outras como A Muralha, O Quinto dos Infernos, Desejo, se sairem em BD seria ótimo.

Avatar do usuário
Viakenny
Sensacional
Sensacional
Mensagens: 159
Registrado em: Qui 22 Jul 2010 11:09
Localização: São Caetano do Sul - SP
Contato:

Re: Minisséries nacionais em "raio azul".

Mensagem por Viakenny » Ter 16 Nov 2010 09:26

viniciusjf escreveu:A Globo tem que lançar logo as fodas: A Muralha, Chiquinha Gonzaga, Os Maias e Memorial de Maria Moura.
acho que nenhuma delas foi produzida em HD, logo, nada de Blu-ray.

Avatar do usuário
fvieirace
Cabuloso
Cabuloso
Mensagens: 763
Registrado em: Seg 19 Jul 2010 22:53
Contato:

Re: Minisséries nacionais em "raio azul".

Mensagem por fvieirace » Ter 16 Nov 2010 10:26

O pro da Globo é que ela tem a mania de pegar as séries grandes e cortar, como A Muralha, por exemplo. :) Esse é o pro das séries quase intermináveis da emissora. :)

nyuicaro
Chumbrega
Chumbrega
Mensagens: 34
Registrado em: Qua 06 Out 2010 17:52

Re: Minisséries nacionais em "raio azul".

Mensagem por nyuicaro » Ter 16 Nov 2010 15:28

Eu comprei Capitu DVD e fiquei meio chateado, porque veio em um digipack bem bonito, porém sem luva. Agora tenho um digipack que fica aberto. Achei "muito nd vê". Queria comprar o Blu-ray que vem em um digipack também e com luva. O problema do Blu-ray é q não vem os extras. Vem só os episodios sem nenhum extra. Gostaria de saber pq fazem um negocio desse. Pow. . . se não dava pra tr os extras em HD, colocava em SD msm, seria muito melhor do que não vim nd.

robsoncps
Showzáço
Showzáço
Mensagens: 271
Registrado em: Dom 12 Set 2010 12:56

Re: Minisséries nacionais em "raio azul".

Mensagem por robsoncps » Ter 16 Nov 2010 19:17

olha, o problema das séries nacionais que elas são muito caras, mais do que as internacionais. fica quase inviável colecioná-las, mas acho dificil ser lançada em hd algumas antigas como memorial de maria moura, apesar que eu gostaria mesmo é de O primo basilio.

Avatar do usuário
endriago
Simpléx
Simpléx
Mensagens: 109
Registrado em: Ter 03 Ago 2010 01:57
Localização: Paraná

Re: Minisséries nacionais em "raio azul".

Mensagem por endriago » Qui 18 Nov 2010 00:56

Tenho três das séries brasileiras já lançadas em BD: Maysa, Capitu e Som & Fúria.

Para dar uma noção da qualidade de cada série, escaneei o primeiro disco de cada uma delas:

Maysa:

Código: Selecionar todos

                                                                                                                Total   Video                                             
Title                                                           Codec   Length  Movie Size      Disc Size       Bitrate Bitrate Main Audio Track                          Secondary Audio Track
-----                                                           ------  ------- --------------  --------------  ------- ------- ------------------                        ---------------------
00000.MPLS                                                      AVC     3:04:15 46.003.593.216  46.427.028.596  33,29   29,95   LPCM 2.0 1536Kbps (48kHz/16-bit)          

Código: Selecionar todos


DISC INFO:

Disc Title:     MAYSA_DISCO_01
Disc Size:      46.427.028.596 bytes
Protection:     AACS
BD-Java:        Yes
BDInfo:         0.5.6

PLAYLIST REPORT:

Name:                   00000.MPLS
Length:                 3:04:15 (h:m:s)
Size:                   46.003.593.216 bytes
Total Bitrate:          33,29 Mbps

VIDEO:

Codec                   Bitrate             Description     
-----                   -------             -----------     
MPEG-4 AVC Video        29945 kbps          1080i / 29,970 fps / 16:9 / High Profile 4.1

AUDIO:

Codec                           Language        Bitrate         Description     
-----                           --------        -------         -----------     
LPCM Audio                      Portuguese      1536 kbps       2.0 / 48 kHz / 1536 kbps / 16-bit

SUBTITLES:

Codec                           Language        Bitrate         Description     
-----                           --------        -------         -----------     
Presentation Graphics           English         26,327 kbps                     
Presentation Graphics           Portuguese      30,567 kbps                     
Presentation Graphics           Spanish         30,300 kbps                     

FILES:

Name            Time In         Length          Size            Total Bitrate   
----            -------         ------          ----            -------------   
00000.M2TS      0:00:00.000     3:04:15.677     46.003.593.216  33.289          

CHAPTERS:

Number          Time In         Length          Avg Video Rate  Max 1-Sec Rate  Max 1-Sec Time  Max 5-Sec Rate  Max 5-Sec Time  Max 10Sec Rate  Max 10Sec Time  Avg Frame Size  Max Frame Size  Max Frame Time  
------          -------         ------          --------------  --------------  --------------  --------------  --------------  --------------  --------------  --------------  --------------  --------------  
1               0:00:00.000     0:09:07.146     29.402 kbps     50.347 kbps     00:01:11.171    34.123 kbps     00:01:10.737    32.256 kbps     00:01:11.104    122.622 bytes   561.104 bytes   00:07:40.693    
2               0:09:07.146     0:11:05.531     30.116 kbps     50.845 kbps     00:16:12.237    34.968 kbps     00:14:09.281    33.093 kbps     00:14:09.315    125.611 bytes   513.966 bytes   00:19:02.908    
3               0:20:12.678     0:07:28.981     30.289 kbps     44.526 kbps     00:21:41.900    34.392 kbps     00:24:17.222    32.392 kbps     00:24:04.109    126.331 bytes   545.551 bytes   00:25:07.606    
4               0:27:41.660     0:09:25.164     30.019 kbps     46.901 kbps     00:29:29.067    35.080 kbps     00:35:49.514    33.348 kbps     00:35:49.480    125.204 bytes   548.786 bytes   00:29:29.167    
5               0:37:06.824     0:04:57.530     29.431 kbps     39.335 kbps     00:37:23.741    32.143 kbps     00:38:42.620    31.165 kbps     00:40:41.305    122.754 bytes   544.530 bytes   00:38:07.551    
6               0:42:04.355     0:10:56.822     30.045 kbps     51.278 kbps     00:46:17.908    34.601 kbps     00:46:17.975    32.906 kbps     00:45:13.243    125.314 bytes   509.083 bytes   00:47:44.428    
7               0:53:01.178     0:13:09.121     30.197 kbps     45.756 kbps     00:57:19.135    33.313 kbps     01:05:32.028    32.102 kbps     01:05:31.260    125.948 bytes   574.881 bytes   01:00:36.866    
8               1:06:10.299     0:13:54.500     29.901 kbps     49.926 kbps     01:10:48.911    37.165 kbps     01:10:48.911    35.650 kbps     01:10:48.911    124.711 bytes   522.514 bytes   01:15:27.089    
9               1:20:04.800     0:09:08.180     29.673 kbps     54.776 kbps     01:20:05.333    34.934 kbps     01:26:56.544    34.052 kbps     01:26:53.942    123.763 bytes   641.084 bytes   01:26:56.611    
10              1:29:12.980     0:08:45.524     29.726 kbps     45.370 kbps     01:34:08.809    33.946 kbps     01:31:16.103    31.965 kbps     01:31:17.004    123.983 bytes   492.666 bytes   01:35:07.501    
11              1:37:58.505     0:11:42.535     29.584 kbps     42.674 kbps     01:38:00.107    35.630 kbps     01:46:01.521    34.773 kbps     01:46:01.421    123.392 bytes   472.824 bytes   01:39:42.009    
12              1:49:41.041     0:09:05.077     29.388 kbps     43.327 kbps     01:57:49.128    32.624 kbps     01:54:26.259    32.046 kbps     01:52:19.866    122.572 bytes   412.648 bytes   01:55:11.104    
13              1:58:46.119     0:11:05.665     29.760 kbps     46.845 kbps     01:58:46.886    32.847 kbps     02:07:16.362    31.612 kbps     01:59:27.960    124.126 bytes   485.724 bytes   01:59:37.136    
14              2:09:51.784     0:08:37.149     30.235 kbps     51.486 kbps     02:15:26.251    35.986 kbps     02:15:26.218    34.085 kbps     02:15:26.151    126.105 bytes   485.565 bytes   02:15:26.384    
15              2:18:28.933     0:12:22.274     30.191 kbps     55.726 kbps     02:18:29.434    34.695 kbps     02:18:29.367    32.602 kbps     02:27:30.041    125.921 bytes   441.269 bytes   02:27:37.048    
16              2:30:51.208     0:14:56.729     30.506 kbps     49.665 kbps     02:42:54.531    36.139 kbps     02:42:54.464    32.331 kbps     02:40:16.173    127.236 bytes   459.688 bytes   02:42:55.165    
17              2:45:47.938     0:07:06.793     29.606 kbps     49.720 kbps     02:45:58.715    34.484 kbps     02:52:36.312    32.622 kbps     02:52:36.479    123.481 bytes   521.681 bytes   02:47:21.798    
18              2:52:54.731     0:11:20.946     30.190 kbps     50.073 kbps     02:55:07.797    34.755 kbps     02:56:15.731    33.058 kbps     02:56:15.731    125.923 bytes   393.832 bytes   02:54:28.825    

STREAM DIAGNOSTICS:

File            PID             Type            Codec           Language                Seconds                 Bitrate                 Bytes           Packets         
----            ---             ----            -----           --------                --------------          --------------          -------------   -----           
00000.M2TS      4113 (0x1011)   0x1B            AVC                                     11055,611               29.945                  41.383.073.303  225.267.771     
00000.M2TS      4352 (0x1100)   0x80            LPCM            por (Portuguese)        11055,611               1.542                   2.131.535.104   13.266.816      
00000.M2TS      4608 (0x1200)   0x90            PGS             por (Portuguese)        11055,611               31                      42.242.812      243.672         
00000.M2TS      4609 (0x1201)   0x90            PGS             eng (English)           11055,611               26                      36.382.312      211.759         
00000.M2TS      4610 (0x1202)   0x90            PGS             spa (Spanish)           11055,611               30                      41.873.944      241.666         

Capitu:

Código: Selecionar todos

                                                                                                                Total   Video                                             
Title                                                           Codec   Length  Movie Size      Disc Size       Bitrate Bitrate Main Audio Track                          Secondary Audio Track
-----                                                           ------  ------- --------------  --------------  ------- ------- ------------------                        ---------------------
00006.MPLS                                                      AVC     1:59:33 42.427.723.776  42.749.143.777  47,32   37,99   LPCM 5.1 4608Kbps (48kHz/16-bit)          DD AC3 5.1 640Kbps

Código: Selecionar todos


DISC INFO:

Disc Title:     CAPITU_DISCO_01
Disc Size:      42.749.143.777 bytes
Protection:     AACS
BD-Java:        Yes
BDInfo:         0.5.6

PLAYLIST REPORT:

Name:                   00006.MPLS
Length:                 1:59:33 (h:m:s)
Size:                   42.427.723.776 bytes
Total Bitrate:          47,32 Mbps

VIDEO:

Codec                   Bitrate             Description     
-----                   -------             -----------     
MPEG-4 AVC Video        37988 kbps          1080i / 29,970 fps / 16:9 / High Profile 4.1

AUDIO:

Codec                           Language        Bitrate         Description     
-----                           --------        -------         -----------     
LPCM Audio                      Portuguese      4608 kbps       5.1 / 48 kHz / 4608 kbps / 16-bit
Dolby Digital Audio             Portuguese      640 kbps        5.1 / 48 kHz / 640 kbps
LPCM Audio                      Portuguese      1536 kbps       2.0 / 48 kHz / 1536 kbps / 16-bit

SUBTITLES:

Codec                           Language        Bitrate         Description     
-----                           --------        -------         -----------     
Presentation Graphics           English         28,718 kbps                     
Presentation Graphics           French          30,529 kbps                     
Presentation Graphics           Spanish         29,716 kbps                     

FILES:

Name            Time In         Length          Size            Total Bitrate   
----            -------         ------          ----            -------------   
00006.M2TS      0:00:00.000     1:59:33.366     42.427.723.776  47.317          

CHAPTERS:

Number          Time In         Length          Avg Video Rate  Max 1-Sec Rate  Max 1-Sec Time  Max 5-Sec Rate  Max 5-Sec Time  Max 10Sec Rate  Max 10Sec Time  Avg Frame Size  Max Frame Size  Max Frame Time  
------          -------         ------          --------------  --------------  --------------  --------------  --------------  --------------  --------------  --------------  --------------  --------------  
1               0:00:00.000     0:44:35.406     37.993 kbps     59.564 kbps     00:10:58.090    42.289 kbps     00:01:38.631    40.255 kbps     00:21:56.782    158.460 bytes   728.571 bytes   00:01:12.038    
2               0:44:35.406     0:40:07.204     37.984 kbps     60.648 kbps     01:24:32.133    42.214 kbps     01:24:27.629    40.169 kbps     01:24:06.107    158.424 bytes   655.385 bytes   01:24:32.300    
3               1:24:42.610     0:34:50.755     37.986 kbps     58.849 kbps     01:41:06.827    42.675 kbps     01:24:43.678    40.262 kbps     01:49:55.488    158.434 bytes   548.674 bytes   01:56:16.102    

STREAM DIAGNOSTICS:

File            PID             Type            Codec           Language                Seconds                 Bitrate                 Bytes           Packets         
----            ---             ----            -----           --------                --------------          --------------          -------------   -----           
00006.M2TS      4113 (0x1011)   0x1B            AVC                                     7173,299                37.988                  34.062.498.793  185.351.628     
00006.M2TS      4352 (0x1100)   0x81            AC3             por (Portuguese)        7173,299                640                     573.870.080     3.362.520       
00006.M2TS      4353 (0x1101)   0x80            LPCM            por (Portuguese)        7173,299                1.542                   1.383.025.736   8.608.044       
00006.M2TS      4354 (0x1102)   0x80            LPCM            por (Portuguese)        7173,299                4.614                   4.137.599.816   22.954.784      
00006.M2TS      4608 (0x1200)   0x90            PGS             eng (English)           7173,299                29                      25.750.893      148.917         
00006.M2TS      4609 (0x1201)   0x90            PGS             spa (Spanish)           7173,299                30                      26.645.858      153.683         
00006.M2TS      4610 (0x1202)   0x90            PGS             fra (French)            7173,299                31                      27.374.392      157.804         

Som & Fúria:

Código: Selecionar todos

                                                                                                                Total   Video                                             
Title                                                           Codec   Length  Movie Size      Disc Size       Bitrate Bitrate Main Audio Track                          Secondary Audio Track
-----                                                           ------  ------- --------------  --------------  ------- ------- ------------------                        ---------------------
00002.MPLS                                                      AVC     0:43:36 9.122.199.552   49.187.985.875  27,89   19,46   LPCM 5.1 4608Kbps (48kHz/16-bit)          DD AC3 5.1 640Kbps

Código: Selecionar todos


DISC INFO:

Disc Title:     SOMEFURIADISCO01
Disc Size:      49.187.985.875 bytes
Protection:     AACS
BD-Java:        Yes
BDInfo:         0.5.6

PLAYLIST REPORT:

Name:                   00002.MPLS
Length:                 0:43:36 (h:m:s)
Size:                   9.122.199.552 bytes
Total Bitrate:          27,89 Mbps

VIDEO:

Codec                   Bitrate             Description     
-----                   -------             -----------     
MPEG-4 AVC Video        19456 kbps          1080p / 23,976 fps / 16:9 / High Profile 4.1

AUDIO:

Codec                           Language        Bitrate         Description     
-----                           --------        -------         -----------     
LPCM Audio                      Portuguese      4608 kbps       5.1 / 48 kHz / 4608 kbps / 16-bit
Dolby Digital Audio             Portuguese      640 kbps        5.1 / 48 kHz / 640 kbps
LPCM Audio                      Portuguese      1536 kbps       2.0 / 48 kHz / 1536 kbps / 16-bit

SUBTITLES:

Codec                           Language        Bitrate         Description     
-----                           --------        -------         -----------     
Presentation Graphics           English         36,326 kbps                     

FILES:

Name            Time In         Length          Size            Total Bitrate   
----            -------         ------          ----            -------------   
00002.M2TS      0:00:00.000     0:43:36.280     9.122.199.552   27.894          

CHAPTERS:

Number          Time In         Length          Avg Video Rate  Max 1-Sec Rate  Max 1-Sec Time  Max 5-Sec Rate  Max 5-Sec Time  Max 10Sec Rate  Max 10Sec Time  Avg Frame Size  Max Frame Size  Max Frame Time  
------          -------         ------          --------------  --------------  --------------  --------------  --------------  --------------  --------------  --------------  --------------  --------------  
1               0:00:00.000     0:07:28.448     19.081 kbps     30.691 kbps     00:06:27.428    24.850 kbps     00:00:03.169    22.734 kbps     00:00:00.083    99.469 bytes    569.690 bytes   00:01:25.752    
2               0:07:28.448     0:09:55.845     19.021 kbps     38.136 kbps     00:10:16.949    23.635 kbps     00:10:16.949    21.737 kbps     00:13:39.902    99.167 bytes    604.345 bytes   00:09:10.550    
3               0:17:24.293     0:06:13.664     19.686 kbps     28.719 kbps     00:23:17.521    23.351 kbps     00:17:46.148    22.680 kbps     00:17:40.809    102.636 bytes   371.977 bytes   00:17:33.802    
4               0:23:37.958     0:09:21.519     19.846 kbps     29.601 kbps     00:30:34.332    24.574 kbps     00:30:30.370    23.908 kbps     00:30:25.406    103.466 bytes   472.180 bytes   00:32:59.060    
5               0:32:59.477     0:10:36.802     19.647 kbps     57.844 kbps     00:40:51.657    28.977 kbps     00:40:48.320    25.681 kbps     00:40:42.815    102.437 bytes   741.101 bytes   00:37:34.919    

STREAM DIAGNOSTICS:

File            PID             Type            Codec           Language                Seconds                 Bitrate                 Bytes           Packets         
----            ---             ----            -----           --------                --------------          --------------          -------------   -----           
00002.M2TS      4113 (0x1011)   0x1B            AVC                                     2616,155                19.457                  6.362.684.303   34.616.707      
00002.M2TS      4352 (0x1100)   0x80            LPCM            por (Portuguese)        2616,155                1.542                   504.419.748     3.139.542       
00002.M2TS      4353 (0x1101)   0x80            LPCM            por (Portuguese)        2616,155                4.615                   1.509.073.188   8.372.112       
00002.M2TS      4354 (0x1102)   0x81            AC3             por (Portuguese)        2616,155                640                     209.303.040     1.226.385       
00002.M2TS      4608 (0x1200)   0x90            PGS             eng (English)           2616,155                36                      11.879.728      69.038          



Reparem que há muita inconsistência entre as séries. Maysa, a mais musical de todas, tem o pior áudio, somente LPCM 2.0, com baixo bitrate :wtf: , porém com ótimo bitrate de vídeo (29 Mpbs) :-D ; Capitu, por sua vez, tem o melhor bitrate de vídeo de todas, com inacreditáveis 37 Mbps :rock: :happy: :joinha: :claps: e áudio 5.1 LPCM ; finalmente, Som & Fúria é a única encodada em 1080p, porém tem o pior bitrate de vídeo de todas, com 19 Mbps :faca: , porém com ótimo áudio LPCM 5.1.

Fernanddo
Comumzão
Comumzão
Mensagens: 80
Registrado em: Sex 12 Nov 2010 21:30

Re: Minisséries nacionais em "raio azul".

Mensagem por Fernanddo » Sex 30 Set 2011 16:42

Só está me faltando "Dalva & Herivelto.
A apresentação da outras 3 estão excelentes, principalmente de "Capitu", foi dica do JC, vale a pena.

glaucoheitor
São Criterion
São Criterion
Mensagens: 3231
Registrado em: Seg 22 Ago 2011 07:44

Re: Minisséries nacionais em "raio azul".

Mensagem por glaucoheitor » Sex 30 Set 2011 16:58

Alguém sabe o lugar mais barato para comprar Capitu? :-D
Achou algo em alguma loja dos EUA ou da Alemanha que não envia para o Brasil? Fale comigo e te ajudo a importar!
http://bjc.uol.com.br/forum/compra-e-ve ... t2855.html

Browncoat
Simpléx
Simpléx
Mensagens: 139
Registrado em: Sáb 15 Jan 2011 02:58
Agradeceu: 3 vezes
Agradeceram: 1 vez

Re: Minisséries nacionais em "raio azul".

Mensagem por Browncoat » Sex 30 Set 2011 17:31

[/b]
Luís Fernando escreveu:E aí eu pergunto: alguns de vocês já adquiriram ou já se interessaram por essas edições?
Por mim compraria todas!!!
Eu tenho apenas SOM & FÚRIA... e não me arrependo. Absolutamente sensacional. Pena que a versão em BR não tem extras (o DVD tem).

Avatar do usuário
giologia
Belezura
Belezura
Mensagens: 1753
Registrado em: Dom 26 Jun 2011 01:56

Re: Minisséries nacionais em "raio azul".

Mensagem por giologia » Dom 06 Nov 2011 00:05

glaucoheitor escreveu:Alguém sabe o lugar mais barato para comprar Capitu? :-D
Capitu, bem como Maysa e Som & Fúria, costuma aparecer bastante nessas promoções de BDs e vemos por aí. Eu mesma já comprei Capitu (a próxima será Maysa), e não me arrependi. A apresentação é maravilhosa!
Do something pretty while you can;
Don't be a fool.


---

Meus tópicos de vendas:
BDs - http://goo.gl/BIUzNT
DVDs - http://goo.gl/Sy5nKV
CDs - http://goo.gl/rPs4Nl
Jogos para Wii - http://goo.gl/xlAUt7

Avatar do usuário
Molungo
Showzáço
Showzáço
Mensagens: 296
Registrado em: Seg 19 Jul 2010 00:47
Localização: Aqui. =D
Contato:

Re: Minisséries nacionais em "raio azul".

Mensagem por Molungo » Ter 12 Jun 2012 16:49

Capitu é o melhor quesito de colecionador que a Som Livre lanço.

robsoncps
Showzáço
Showzáço
Mensagens: 271
Registrado em: Dom 12 Set 2010 12:56

Re: Minisséries nacionais em "raio azul".

Mensagem por robsoncps » Qua 13 Jun 2012 21:40

eu tenho as 3, todas lacradas, e ainda não tive coragem de assistir, falta Dalva e Herivelto.
Comprei mesmo apenas para ter na coleção.

e quanto as minisséries da Record, alguém tem alguma para dizer se prestam?

andre_f_f
Chumbrega
Chumbrega
Mensagens: 29
Registrado em: Seg 22 Nov 2010 00:48

Re: Minisséries nacionais em "raio azul".

Mensagem por andre_f_f » Dom 17 Jun 2012 11:57

De lascar é eles lançarem as séries (pelo menos Capitu e Som & Fúria) em BD sem nada de extras, e lançarem em DVD com extras.

Avatar do usuário
leko017
Simpléx
Simpléx
Mensagens: 128
Registrado em: Sáb 02 Out 2010 15:14
Contato:

Re: Minisséries nacionais em "raio azul".

Mensagem por leko017 » Sáb 25 Ago 2012 11:22

andre_f_f escreveu:De lascar é eles lançarem as séries (pelo menos Capitu e Som & Fúria) em BD sem nada de extras, e lançarem em DVD com extras.
O pior é que Capitu não tem legenda em portugues. Esse BD obviamente foi produzido para o mercado internacional, porém o minimo era ter colocado legendas do nosso país.

Avatar do usuário
jr93vitor
Cabuloso
Cabuloso
Mensagens: 438
Registrado em: Ter 31 Jul 2012 08:51
Localização: Londrina/PR

Re: Minisséries nacionais em "raio azul".

Mensagem por jr93vitor » Sáb 25 Ago 2012 11:45

De todas citadas só tenho interesse no box "Som & Furia", "Capitu" eu comprei só pra fazer volume e acebei me encantdo com a apresentação do BOX, lindo e maravilhoso. Compraria mais um BOX Capitu pra guardar LACRADO.
O BOX "Som & Furia" é de mesma apresentação do BOX "Capitu"?
:babando:

Avatar do usuário
giologia
Belezura
Belezura
Mensagens: 1753
Registrado em: Dom 26 Jun 2011 01:56

Re: Minisséries nacionais em "raio azul".

Mensagem por giologia » Sáb 25 Ago 2012 17:31

O BD de Capitu é LINDO, mesmo! :-D

O seu único "defeito", na minha opinião, é ser G1...
Do something pretty while you can;
Don't be a fool.


---

Meus tópicos de vendas:
BDs - http://goo.gl/BIUzNT
DVDs - http://goo.gl/Sy5nKV
CDs - http://goo.gl/rPs4Nl
Jogos para Wii - http://goo.gl/xlAUt7

Alef38
Cabuloso
Cabuloso
Mensagens: 952
Registrado em: Ter 12 Jun 2012 20:30
Localização: São Paulo - SP

Re: Minisséries nacionais em "raio azul".

Mensagem por Alef38 » Sáb 01 Set 2012 08:34

Tenho todas, alias coleciono as miniseries globais. Só acho que a Globo deveria lançar as novas em BD e as mais antigas fazer a conversão para HD.

Tem sido lançadas tb várias novelas, um resumo é claro, mas acho que deveriam lançar completas, poderiam até lançar em SD nos BDs, assim caberiam numa boa todos os capitulos e tb em poucos discos BDs mas .....

Avatar do usuário
leko017
Simpléx
Simpléx
Mensagens: 128
Registrado em: Sáb 02 Out 2010 15:14
Contato:

Re: Minisséries nacionais em "raio azul".

Mensagem por leko017 » Qua 12 Set 2012 16:52


Darth-Tyranus
Cabuloso
Cabuloso
Mensagens: 401
Registrado em: Sex 29 Jun 2012 23:02

Re: Minisséries nacionais em "raio azul".

Mensagem por Darth-Tyranus » Qui 13 Set 2012 13:28

Ano passado no Submarino tinha essas séries todos em promoção e estavam baratíssimas, mas acabei não pegando :no:

Algo entorno de 20-30 reais +ou-, valia muito a pena.

Pedro
Chumbrega
Chumbrega
Mensagens: 11
Registrado em: Qui 01 Dez 2011 11:04

Re: Minisséries nacionais em "raio azul".

Mensagem por Pedro » Qua 19 Set 2012 19:30

Das séries da Globo (apesar de ser Globo neh, vai... heheh) tenho apenas a sensacional "A pedra do reino" dirigida pelo cara mais foda da televisão brasileira, o Luiz Fernando Carvalho (também de "Lavoura Arcaica").
Mas pretendo adquirir algumas como, Os Maias, JK, Hilda Furacão e A Casa das Sete Mulheres. Inexplicavelmente, o preço dessas edições é muito alto, maior do que séries internacionais as vezes como mencionaram acima...

andrelvidal
Pirata Original
Pirata Original
Mensagens: 5
Registrado em: Seg 07 Mai 2012 00:02

Re: Minisséries nacionais em "raio azul".

Mensagem por andrelvidal » Qua 26 Set 2012 17:21

eu tenho Maysa em DVD e BD.
A parte ruim do BD da Maysa é que nao tem disco de Extras (o 3 do box DVD).

Responder